e-Zabava
Would you like to react to this message? Create an account in a few clicks or log in to continue.
Login

Zaboravih zaporku

UNDER MELODY
Put oko svijeta za 80 dana 6ns21j
Put oko svijeta za 80 dana 27663141
Poll

Koji OS koristite na mobitelu (smartphoneu)?

Put oko svijeta za 80 dana I_vote_lcap57%Put oko svijeta za 80 dana I_vote_rcap 57% [ 35 ]
Put oko svijeta za 80 dana I_vote_lcap16%Put oko svijeta za 80 dana I_vote_rcap 16% [ 10 ]
Put oko svijeta za 80 dana I_vote_lcap21%Put oko svijeta za 80 dana I_vote_rcap 21% [ 13 ]
Put oko svijeta za 80 dana I_vote_lcap3%Put oko svijeta za 80 dana I_vote_rcap 3% [ 2 ]
Put oko svijeta za 80 dana I_vote_lcap2%Put oko svijeta za 80 dana I_vote_rcap 2% [ 1 ]

Ukupno glasova : 61

Zagreb
Vrijeme
CURRENT MOON
Latest topics
» 15 najpoznatijih slika duhova
by Neptun uto tra 30, 2013 2:45 pm

» Dječak 'na nebu' upoznao sestru za koju nije ni znao
by Neptun uto tra 30, 2013 2:30 pm

» Upoznajte dijete koje u detalje zna opisati svoj prosli zivot!
by Neptun uto tra 30, 2013 2:22 pm

» Mačak koji predviđa smrt
by Neptun uto tra 30, 2013 2:18 pm

» Kakav to stvor baulja kanalizacijom?
by Neptun uto tra 30, 2013 2:13 pm

Keywords

lilo  stitch  


Put oko svijeta za 80 dana

Go down

Put oko svijeta za 80 dana Empty Put oko svijeta za 80 dana

Postaj by Mato on uto oľu 08, 2011 8:23 pm

Put oko svijeta za 80 dana 68483251396898891711

Format : AVI
Format/Info : Audio Video Interleave
File size : 350 MiB
Duration : 39mn 36s
Overall bit rate : 1 235 Kbps
Writing application : VirtualDubMod 1.5.4.1 (build 2178/release)
Writing library : VirtualDubMod build 2178/release

Video
ID : 0
Format : MPEG-4 Visual
Format profile : AdvancedSimple@L5
Format settings, BVOP : Yes
Format settings, QPel : No
Format settings, GMC : No warppoints
Format settings, Matrix : Custom
Codec ID : XVID
Codec ID/Hint : XviD
Duration : 39mn 36s
Bit rate : 781 Kbps
Width : 720 pixels
Height : 544 pixels
Display aspect ratio : 4:3
Frame rate : 25.000 fps
Resolution : 24 bits
Colorimetry : 4:2:0
Scan type : Progressive
Bits/(Pixel*Frame) : 0.080
Stream size : 221 MiB (63%)
Writing library : XviD 1.2.1 (UTC 2008-12-04)

Audio
ID : 1
Format : AC-3
Format/Info : Audio Coding 3
Codec ID : 2000
Duration : 39mn 35s
Bit rate mode : Constant
Bit rate : 448 Kbps
Channel(s) : 2 channels
Channel positions : L R
Sampling rate : 48.0 KHz
Stream size : 127 MiB (36%)
Alignment : Split accross interleaves
Interleave, duration : 96 ms (2.40 video frames)
Interleave, preload duration : 96 ms

Kod:
http://www.fileserve.com/file/BenYRCg

____________________________________
[You must be registered and logged in to see this link.]
Mato
Mato

Spol : Male
Broj postova : 1522
Bodovi : 70003
Preporuke : 41
Rođendan : 08.09.1988
Registriran/a od : 08.10.2009
Godina : 31

http://www.e-zabava.tk

[Vrh] Go down

[Vrh]


 
Permissions in this forum:
Ne moľeą odgovarati na postove.